BBC Gang Girls WebRip x264-MCTV

  • Category TV
  • Type DVD
  • Language English
  • Total size 101.0 MB
  • Uploaded By Mulva1989
  • Downloads 50
  • Last checked 3 days ago
  • Date uploaded 1 week ago
  • Seeders 13
  • Leechers 1

Infohash : A3C759ECA4C3A86D0F61001731F57F07C1A048AD

BBC Gang Girls WebRip x264-MCTV
http://www.bbc.co.uk/programmes/p04ly102

Airdate : 11 Jan 2017



Gang Girls
Livvy Haydock explores the secretive world of gang girls, meeting a young woman whose 'initiation list' included the kidnap and rape of her friend.

English subtitles included

Screenshots

Click to enlarge







Format : MPEG-4
Format profile : Base Media
Codec ID : isom (isom/avc1)
File size : 101 MiB
Duration : 12 min 58 s
Overall bit rate mode : Variable
Overall bit rate : 1 088 kb/s
Encoded date : UTC 2017-01-12 11:06:16
Tagged date : UTC 2017-01-12 11:06:16

Video
ID : 1
Format : AVC
Format/Info : Advanced Video Codec
Format profile : [email protected]
Format settings, CABAC : Yes
Format settings, ReFrames : 8 frames
Codec ID : avc1
Codec ID/Info : Advanced Video Coding
Duration : 12 min 58 s
Bit rate : 989 kb/s
Maximum bit rate : 2 975 kb/s
Width : 720 pixels
Height : 404 pixels
Display aspect ratio : 16:9
Frame rate mode : Constant
Frame rate : 25.000 FPS
Color space : YUV
Chroma subsampling : 4:2:0
Bit depth : 8 bits
Scan type : Progressive
Bits/(Pixel*Frame) : 0.136
Stream size : 91.8 MiB (91%)
Writing library : x264 core 148 r2705 3f5ed56
Encoding settings : cabac=1 / ref=8 / deblock=1:0:0 / analyse=0x3:0x113 / me=umh / subme=9 / psy=1 / psy_rd=1.00:0.00 / mixed_ref=1 / me_range=24 / chroma_me=1 / trellis=1 / 8x8dct=1 / cqm=0 / deadzone=21,11 / fast_pskip=1 / chroma_qp_offset=-2 / threads=6 / lookahead_threads=1 / sliced_threads=0 / nr=0 / decimate=1 / interlaced=0 / bluray_compat=0 / constrained_intra=0 / bframes=5 / b_pyramid=2 / b_adapt=2 / b_bias=0 / direct=3 / weightb=1 / open_gop=0 / weightp=2 / keyint=250 / keyint_min=25 / scenecut=40 / intra_refresh=0 / rc_lookahead=60 / rc=crf / mbtree=1 / crf=21.0 / qcomp=0.60 / qpmin=0 / qpmax=69 / qpstep=4 / ip_ratio=1.40 / aq=2:1.00
Encoded date : UTC 2017-01-12 11:06:16
Tagged date : UTC 2017-01-12 11:06:17

Audio
ID : 2
Format : AAC
Format/Info : Advanced Audio Codec
Format profile : LC
Codec ID : 40
Duration : 12 min 58 s
Source duration : 12 min 58 s
Bit rate mode : Variable
Nominal bit rate : 96.0 kb/s
Maximum bit rate : 102 kb/s
Channel(s) : 2 channels
Channel positions : Front: L R
Sampling rate : 48.0 kHz
Frame rate : 46.875 FPS (1024 spf)
Compression mode : Lossy
Source stream size : 8.81 MiB (9%)
Title : BBC.Gang.Girls.WebRip.x264-MCTV.aac#audio:delay=250 - Imported with GPAC 0.5.0-rev
Encoded date : UTC 2017-01-12 11:06:17
Tagged date : UTC 2017-01-12 11:06:17

Text
ID : 3
Format : Timed Text
Muxing mode : sbtl
Codec ID : tx3g
Duration : 12 min 47 s
Bit rate mode : Variable
Bit rate : 120 b/s
Stream size : 11.2 KiB (0%)
Title : BBC.Gang.Girls.WebRip.x264-MCTV.srt:hdlr=sbtl:lang=en:group=2:layer=-1 - Imported with GPAC 0.5.0-rev
Language : English
Default : Yes
Forced : No
Alternate group : 2
Encoded date : UTC 2017-01-12 11:06:17
Tagged date : UTC 2017-01-12 11:06:17

Files:

BBC.Gang.Girls.WebRip.x264-MCTV
  • BBC.Gang.Girls.WebRip.x264-MCTV.mp4 (100.9 MB)
  • English.srt (20.5 KB)
  • MulvaCodedTV.jpg (30.3 KB)

There are currently no comments. Feel free to leave one :)

Code:

  • udp://tracker.coppersurfer.tk:6969/announce
  • udp://tracker.zer0day.to:1337/announce
  • udp://ipv4.tracker.harry.lu:80/announce
  • udp://tracker.opentrackr.org:1337/announce
  • udp://p4p.arenabg.com:1337/announce
  • udp://inferno.demonoid.pw:3393/announce
  • udp://bt.firebit.co.uk:6969/announce
  • udp://tracker.ilibr.org:80/announce
  • udp://tracker.tiny-vps.com:6969/announce
  • udp://tracker.pirateparty.gr:6969/announce
  • udp://tracker.coppersurfer.tk:80/announce
  • udp://tracker.ilibr.org:6969/announce
  • udp://9.rarbg.me:2710/announce
  • udp://explodie.org:6969/announce
  • udp://inferno.subdemon.com:3395/announce